#TITLE:OH EM GEE 2!!!;
#SUBTITLE:Sung by MrZombie;
#ARTIST:Macgravel / MrZombie;
#TITLETRANSLIT:;
#SUBTITLETRANSLIT:;
#ARTISTTRANSLIT:;
#CREDIT:;
#BANNER:OH EM GEE 2!!!.jpg;
#BACKGROUND:OH EM GEE 2!!!-bg.jpg;
#LYRICSPATH:;
#CDTITLE:;
#MUSIC:OH EM GEE 2!!!.mp3;
#OFFSET:-0.040;
#SAMPLESTART:18.377;
#SAMPLELENGTH:12.000;
#SELECTABLE:YES;
#BPMS:0.000=349.999,96.000=125.000,104.500=349.999,169.000=125.000,177.500=349.999;
#STOPS:;
#BGCHANGES:;
// cache tags:
#FIRSTBEAT:0.000;
#LASTBEAT:194.250;
#SONGFILENAME:Songs/Music V.I.P ^_^/OH EM GEE 2/OH EM GEE 2!!!.sm;
#HASMUSIC:1;
#HASBANNER:1;
#MUSICLENGTH:39.165;
// end cache tags

//---------------dance-single - ----------------
#NOTES:
     dance-single:
     :
     Hard:
     10:
     0.857,1.000,1.000,0.409,0.715,174.000,45.000,16.000,0.000,0.000:
0001
0001
1000
1000
,
0100
0000
0000
0100
0000
0000
0000
0000
,
1000
1000
0010
0010
,
0100
0000
0000
0100
0000
0000
0000
0000
,
0001
0001
1000
1000
,
0100
0000
0000
0100
0000
0000
0000
0000
,
1000
1000
0010
0010
,
0100
0000
0000
0100
0000
0000
0000
0000
,
0001
0000
1000
0001
,
0000
0000
0000
0000
1000
0000
0000
0000
0001
0000
0000
0000
0000
0000
0000
1000
,
0001
0000
1000
0010
,
0000
0000
0000
0000
1000
0000
0000
0000
0010
0000
0000
0000
0000
0000
0000
1000
,
0010
0000
1000
0010
,
0000
0000
0000
0000
0010
0000
0000
0000
0001
0000
0000
0000
0000
0000
0000
1000
,
0010
0000
0100
0001
,
0000
0100
1000
0000
,
1001
1000
1100
0100
,
1010
0000
0000
0010
0101
0000
0000
0000
,
0110
0010
0011
0001
,
0110
0000
0000
0001
0011
0000
0000
0000
,
1100
1000
1010
0010
,
1001
0000
0000
0100
0110
0000
0000
0000
,
0101
0001
0110
0010
,
0011
0000
0000
0100
0110
0000
0000
0000
,
2002
0000
0000
0000
,
0003
0002
0000
0000
0000
0000
0000
0000
,
3003
1001
0000
1010
0000
1100
0000
0110
,
0000
0101
0000
1001
0000
0110
0000
0101
,
0000
0110
0000
1001
0000
1010
0000
0110
,
0000
0101
0000
1001
0000
0101
0000
1001
,
0000
0000
0000
0000
0001
0000
0000
0010
0000
0000
0100
0000
0000
1000
0000
0000
0100
0000
0000
0010
0000
0000
0001
0000
0000
0100
0000
0000
0010
0000
0000
1000
,
0000
0000
0100
0000
0000
0010
0000
0000
0100
0000
0000
1000
0000
0000
0001
0000
0000
0010
0000
0000
0001
0000
0000
0100
0000
0000
0010
0000
0000
1000
0000
0000
,
0001
0000
0000
0100
0000
0000
0010
0000
0000
1000
0000
0000
0100
0000
0000
0010
0000
0000
0001
0000
0000
0100
0000
0000
0010
0000
0000
0100
0000
0000
0001
0000
,
0000
0010
0000
0000
0100
0000
0000
1000
0000
0000
0001
0000
0000
0100
0000
0000
0010
0000
0000
1000
0000
0000
0100
0000
0000
1000
0000
0000
0001
0000
0000
0100
,
0000
0020
0000
0000
0000
0000
0000
0000
0000
0000
0000
0000
0000
0000
0000
0000
,
0000
0000
0000
2030
0000
0000
0000
3200
0000
0000
0000
0320
0000
0000
0000
0032
,
0000
0000
0000
2003
0000
0000
0000
0000
0000
0000
0000
0000
0000
0000
0000
0000
,
0000
0000
0000
3020
0000
0000
0000
0230
0000
0000
0000
0302
0000
0000
0000
2003
,
0000
0000
3001
1000
0000
0000
0000
0000
0000
0000
1000
0100
0000
0000
0000
0000
,
0000
0000
0100
0010
0000
0000
0000
0000
0000
0000
0010
0001
0000
0000
0000
0000
,
0000
0000
0010
0100
0000
0000
0000
0000
0000
0000
1000
0100
0000
0000
0000
0000
,
0000
0000
1000
0010
0000
0000
0000
0000
0000
0000
0010
0100
0000
0000
0000
0000
,
0000
2002
0000
0000
,
0000
0000
3000
2000
0000
0000
0000
0000
,
0000
0000
3003
1100
0000
0000
1010
0000
,
0000
0000
0000
1001
0000
0000
0000
0000
0000
0000
1100
0000
0000
0000
0000
0000
,
1010
0000
0000
0000
0000
0000
0000
0101
0000
0000
0000
0000
0000
0000
0110
0000
,
0000
0000
0000
0000
0011
0000
0000
0000
0000
0000
0000
0110
0000
0000
0000
0000
,
0000
0000
0011
0000
0000
0000
0000
0000
0000
0110
0000
0000
0000
0000
0000
0000
;
